Home » TV Show » Channel 4 - Disabled Daredevils (2016)
Category: TV Show
Download Now


Channel 4 - Disabled Daredevils (2016)
Channel 4 - Disabled Daredevils (2016)
HDTV | 1280x720 | .MKV/AVC @ 2748 Kbps | 46mn 29s | 1.04 GiB
Audio: English AC3 384 kbps, 2 channels | Subs: None
Genre: Documentary

This documentary follows a group of people with disabilities who all have a passion for extreme sports, from bungee jumping to skydiving and waterskiing

MediaInfo



General
Unique ID : 0 (0x0)
Complete name : dsbl.Daredevils.2016.720p.mkv
Format : Matroska
Format version : Version 2
File size : 1.04 GiB
Duration : 46mn 29s
Overall bit rate : 3 195 Kbps

Video
ID : 1
Format : AVC
Format/Info : Advanced Video Codec
Format profile : [email protected]
Format settings, CABAC : Yes
Format settings, ReFrames : 5 frames
Codec ID : V_MPEG4/ISO/AVC
Duration : 46mn 29s
Bit rate : 2 748 Kbps
Width : 1 280 pixels
Height : 720 pixels
Display aspect ratio : 16:9
Frame rate mode : Constant
Frame rate : 25.000 fps
Color space : YUV
Chroma subsampling : 4:2:0
Bit depth : 8 bits
Scan type : Progressive
Bits/(Pixel*Frame) : 0.119
Stream size : 914 MiB (86%)
Writing library : x264 core 148 r2705 3f5ed56
Encoding settings : opencl=1 / cabac=1 / ref=5 / deblock=1:0:0 / analyse=0x3:0x113 / me=umh / subme=8 / psy=1 / psy_rd=1.00:0.00 / mixed_ref=1 / me_range=16 / chroma_me=1 / trellis=1 / 8x8dct=1 / cqm=0 / deadzone=21,11 / fast_pskip=1 / chroma_qp_offset=-2 / threads=12 / lookahead_threads=2 / sliced_threads=0 / nr=0 / decimate=1 / interlaced=0 / bluray_compat=0 / constrained_intra=0 / bframes=3 / b_pyramid=2 / b_adapt=2 / b_bias=0 / direct=3 / weightb=1 / open_gop=0 / weightp=2 / keyint=250 / keyint_min=25 / scenecut=40 / intra_refresh=0 / rc_lookahead=50 / rc=crf / mbtree=1 / crf=21.0 / qcomp=0.60 / qpmin=0 / qpmax=69 / qpstep=4 / ip_ratio=1.40 / aq=1:1.00
Default : Yes
Forced : No
Color range : Limited
Matrix coefficients : BT.709

Audio
ID : 2
Format : AC-3
Format/Info : Audio Coding 3
Mode extension : CM (complete main)
Format settings, Endianness : Big
Codec ID : A_AC3
Duration : 46mn 29s
Bit rate mode : Constant
Bit rate : 384 Kbps
Channel(s) : 2 channels
Channel positions : Front: L R
Sampling rate : 48.0 KHz
Compression mode : Lossy
Stream size : 128 MiB (12%)
Language : English
Default : Yes
Forced : No


Screenshots:

Channel 4 - Disabled Daredevils (2016)

Download link:


Links are Interchangeable - No Password - Single Extraction
Direct Download

Channel 4 - Disabled Daredevils (2016) rapidshare mediafire megaupload hotfile download, Channel 4 - Disabled Daredevils (2016) torrent emule download, Channel 4 - Disabled Daredevils (2016) full free download, Channel 4 - Disabled Daredevils (2016) rar zip password or anything related.
Back
Dear visitor, you went to the site as unregistered user.
We recommend you to Register or enter the site under your name.


Add your comment

Name:*
E-Mail:*
Security code:*