Home » Tutorial » Chord Encyclopedia Vol 1 Triads
Category: Tutorial
Download Now

Chord Encyclopedia Vol 1 Triads
Chord Encyclopedia Vol.1 Triads
WEBRip | English | MP4 + MP3 + PDF Guide | 1920 x 1080 | AVC ~1500 kbps | 25 fps
AAC 128 Kbps 48.0 KHz | 2 channels | 01:53:45 | 1.3 GB
Genre: eLearning Video / Guitar lesson


=================

In this excellent DVD, LickLibrary tutor Levi Clay opens up the secrets of triad construction and fretboard navigation in a truly original and inspiring masterclass.

Over the course of 90 minutes Levi covers how to build triads and all possible voicings for major, minor, diminished, augmented, suspended and more across both open and closed voicings in every inversion all over the neck.

There is no more in detail pack available today with well over 100 voicings tackled, this is the best product you're going to find if you want to master chords.

also You can find my other great:

https://rapu.world/search/?category_slug=&query=Guitar&language=7&age=&author=ParRus&search=1



General
Complete name : 6_Closed_Voiced_Minor_Triads.mp4
Format : MPEG-4
Format profile : Base Media
Codec ID : isom (isom/avc1/iso6)
File size : 153 MiB
Duration : 13 min 7 s
Overall bit rate mode : Variable
Overall bit rate : 1 633 kb/s
Encoded date : UTC 2015-03-12 14:22:39
Tagged date : UTC 2015-03-12 14:22:39

Video
ID : 1
Format : AVC
Format/Info : Advanced Video Codec
Format settings : CABAC / 4 Ref Frames
Format settings, CABAC : Yes
Format settings, RefFrames : 4 frames
Codec ID : avc1
Codec ID/Info : Advanced Video Coding
Duration : 13 min 7 s
Bit rate : 1 500 kb/s
Maximum bit rate : 3 340 kb/s
Width : 1 920 pixels
Height : 1 080 pixels
Display aspect ratio : 16:9
Frame rate mode : Constant
Frame rate : 25.000 FPS
Color space : YUV
Chroma subsampling : 4:2:0
Bit depth : 8 bits
Scan type : Progressive
Bits/(Pixel*Frame) : 0.029
Stream size : 141 MiB (92%)
Writing library : x264 core 144 r2525kMod 40bb568

Audio
ID : 2
Format : AAC
Format/Info : Advanced Audio Codec
Format profile : LC
Codec ID : mp4a-40-2
Duration : 13 min 7 s
Bit rate mode : Variable
Bit rate : 128 kb/s
Maximum bit rate : 147 kb/s
Channel(s) : 2 channels
Channel positions : Front: L R
Sampling rate : 48.0 kHz
Frame rate : 46.875 FPS (1024 SPF)
Compression mode : Lossy
Stream size : 12.0 MiB (8%)
Encoded date : UTC 2015-03-12 14:09:38
Tagged date : UTC 2015-03-12 14:22:41

Screenshots
Chord Encyclopedia Vol 1 Triads
Chord Encyclopedia Vol 1 Triads
Chord Encyclopedia Vol 1 Triads

Download link
Nitroflare

Rapidgator
Direct Download

Chord Encyclopedia Vol 1 Triads rapidshare mediafire megaupload hotfile download, Chord Encyclopedia Vol 1 Triads torrent emule download, Chord Encyclopedia Vol 1 Triads full free download, Chord Encyclopedia Vol 1 Triads rar zip password or anything related.
Back
  • Author: 6_1_9
  • Comment: 0
  • Views: 0
Dear visitor, you went to the site as unregistered user.
We recommend you to Register or enter the site under your name.


Add your comment

Name:*
E-Mail:*
Security code:*