Home » Tutorial » Egghead - Reusable State and Effects with React Hooks .
Category: Tutorial
Download Now

Egghead - Reusable State and Effects with React  Hooks .

Egghead - Reusable State and Effects with React Hooks
WEBRip | English | MP4 | 1280 x 720 | AVC ~1200 Kbps | 25 fps
AAC | 81.8 Kbps | 48.0 KHz | 2 channels | 00:57:08 | 368 MB
Genre: Video Tutorial

Previously, in order to add state or side-effects in React you had to create a Class Component. However, with the introduction of the Hooks proposal (currently pre-released), you can now add state and effects to a Function Component. In addition, you can extract your hook logic and create a custom hook that can be shared across your app.

As I introduce the concepts of React hooks, I'll apply those concepts in various demos to see how they apply in different scenarios. I'll be converting Class Components to Function Components so you can see how they relate to each-other.

By the end of this course, you'll learn how to:

Run (and Skip) side-effects with the useEffect hook
Write a custom hook to share logic in your app
Simplify the Context API with the useContext hook
Update state with dispatch actions using the useReducer hook
Optimize Components with useMemo

General
Complete name : 05-scikit-learn-add-a-lifecycle-event-to-a-react-function-component-with-the-useeffect-hook-ryqgRGXkV.mp4
Format : MPEG-4
Format profile : Base Media
Codec ID : isom (isom/iso2/avc1/mp41)
File size : 65.0 MiB
Duration : 8 min 45 s
Overall bit rate mode : Variable
Overall bit rate : 1 037 kb/s
Encoded date : UTC 1970-01-01 00:00:00
Tagged date : UTC 1970-01-01 00:00:00
Writing application : Lavf52.99.1

Video
ID : 1
Format : AVC
Format/Info : Advanced Video Codec
Format profile : [email protected]
Format settings : CABAC / 4 Ref Frames
Format settings, CABAC : Yes
Format settings, RefFrames : 4 frames
Codec ID : avc1
Codec ID/Info : Advanced Video Coding
Duration : 8 min 45 s
Bit rate : 949 kb/s
Nominal bit rate : 1 200 kb/s
Width : 1 280 pixels
Height : 720 pixels
Display aspect ratio : 16:9
Frame rate mode : Constant
Frame rate : 25.000 FPS
Color space : YUV
Chroma subsampling : 4:2:0
Bit depth : 8 bits
Scan type : Progressive
Bits/(Pixel*Frame) : 0.041
Stream size : 59.5 MiB (92%)
Writing library : x264 core 114
Encoding settings : cabac=1 / ref=2 / deblock=1:0:0 / analyse=0x3:0x113 / me=hex / subme=4 / psy=1 / psy_rd=0.00:0.00 / mixed_ref=0 / me_range=16 / chroma_me=1 / trellis=1 / 8x8dct=1 / cqm=0 / deadzone=21,11 / fast_pskip=1 / chroma_qp_offset=0 / threads=1 / sliced_threads=0 / nr=0 / decimate=1 / interlaced=0 / constrained_intra=0 / bframes=3 / b_pyramid=2 / b_adapt=1 / b_bias=0 / direct=1 / weightb=1 / open_gop=0 / weightp=1 / keyint=250 / keyint_min=25 / scenecut=40 / intra_refresh=0 / rc_lookahead=20 / rc=cbr / mbtree=1 / bitrate=1200 / ratetol=1.0 / qcomp=0.60 / qpmin=0 / qpmax=69 / qpstep=4 / vbv_maxrate=1200 / vbv_bufsize=1200 / nal_hrd=none / ip_ratio=1.41 / aq=1:1.00
Encoded date : UTC 1970-01-01 00:00:00
Tagged date : UTC 1970-01-01 00:00:00

Audio
ID : 2
Format : AAC
Format/Info : Advanced Audio Codec
Format profile : LC
Codec ID : mp4a-40-2
Duration : 8 min 45 s
Bit rate mode : Variable
Bit rate : 81.8 kb/s
Channel(s) : 2 channels
Channel(s)_Original : 1 channel
Channel positions : Front: C
Sampling rate : 48.0 kHz
Frame rate : 46.875 FPS (1024 SPF)
Compression mode : Lossy
Stream size : 5.13 MiB (8%)
Encoded date : UTC 1970-01-01 00:00:00
Tagged date : UTC 1970-01-01 00:00:00

Screenshots


Egghead - Reusable State and Effects with React  Hooks .

Egghead - Reusable State and Effects with React  Hooks .

Egghead - Reusable State and Effects with React  Hooks .


Download link:

rapidgator_net:
https://rapidgator.net/file/25d386b69b9bcb4a23c7bd541a80b748/e4gk0.Egghead..Reusable.State.and.Effects.with.React.Hooks.part1.rar.html
https://rapidgator.net/file/dfcbc8cc218c6d1be84519efc0ee4bf1/e4gk0.Egghead..Reusable.State.and.Effects.with.React.Hooks.part2.rar.html
https://rapidgator.net/file/e7b4793685cb7ccdeb6c49c557bf5e86/e4gk0.Egghead..Reusable.State.and.Effects.with.React.Hooks.part3.rar.html
https://rapidgator.net/file/168b63bc14618650e889fbb9dd8e4f9e/e4gk0.Egghead..Reusable.State.and.Effects.with.React.Hooks.part4.rar.html

nitroflare_com:
http://nitroflare.com/view/7FBCD5EA11458A4/e4gk0.Egghead..Reusable.State.and.Effects.with.React.Hooks.part1.rar
http://nitroflare.com/view/52EA45DF300357C/e4gk0.Egghead..Reusable.State.and.Effects.with.React.Hooks.part2.rar
http://nitroflare.com/view/73BCBBFEF5FC7E4/e4gk0.Egghead..Reusable.State.and.Effects.with.React.Hooks.part3.rar
http://nitroflare.com/view/268C55D0C7F681C/e4gk0.Egghead..Reusable.State.and.Effects.with.React.Hooks.part4.rar

uploadgig_com:
https://uploadgig.com/file/download/748Ff914b19e8416/e4gk0.Egghead..Reusable.State.and.Effects.with.React.Hooks.part1.rar
https://uploadgig.com/file/download/6b5F2773fD33268d/e4gk0.Egghead..Reusable.State.and.Effects.with.React.Hooks.part2.rar
https://uploadgig.com/file/download/B75579a13e11Ab24/e4gk0.Egghead..Reusable.State.and.Effects.with.React.Hooks.part3.rar
https://uploadgig.com/file/download/C8DA351475a5105e/e4gk0.Egghead..Reusable.State.and.Effects.with.React.Hooks.part4.rar


Links are Interchangeable - No Password - Single Extraction
Direct Download

Egghead - Reusable State and Effects with React Hooks . rapidshare mediafire megaupload hotfile download, Egghead - Reusable State and Effects with React Hooks . torrent emule download, Egghead - Reusable State and Effects with React Hooks . full free download, Egghead - Reusable State and Effects with React Hooks . rar zip password or anything related.
Back
Dear visitor, you went to the site as unregistered user.
We recommend you to Register or enter the site under your name.


Add your comment

Name:*
E-Mail:*
Security code:*