Home » Tutorial » Building Green by Kevin Contreras
Category: Tutorial
Download Now

Building Green by Kevin Contreras

Building Green by Kevin Contreras
DVDRip | English | MP4 | 576 x 384 | AVC ~800 Kbps | 29.970 fps
AAC | 80 Kbps | 48.0 KHz | 2 channels | 05:21:56 | 1.99 GB
Genre: eLearning Video / Homebuilding, Repair
Introduction to Building Green, where we meet the owner/host, Kevin Contreras and his father. Kevin shares building ideas with his father in his quest for a straw bale home, and we meet experts who tell us what it means to build green, and that it's possible to find products that are healthy and stylish.


The importance of preparation and green deconstruction are covered, along with site preparation and orientation of the house for maximum solar gain.

EPISODE 2 - THE FOUNDATION AND SLAB

Beauty, health and economy are under foot. Everything from foundations to earthen and concrete floors is covered. Emphasis is placed on the greening of concrete with the use of fly ash, a coal burning byproduct, and radiant floor heating.

EPISODE 3 - STEEL FRAMEWORK AND ROOFING

The steel framework that gives the house its earthquake protection is erected. The house is then given a steel roof to protect the bales during installation and serve as the collector for the rainwater catchment system.

EPISODE 4 - STRAW BALE EXTERIOR ENVELOPE AND INSULATION

The star of the house is straw bales, and their tremendous environmental and health properties. Bale stacking and trimming, and preparation for ShiChuang and doors is covered. Where bales are impractical for insulation, recycled blue jean insulation is used. It's about building a beautiful mansion from a farmer's waste material and post consumer waste to create an envelope that is natural, permeable and maintains healthy indoor air quality.

EPISODE 5 - DOORS, ShiChuang AND EAVES

Using wood wisely and designing for sunlight and airflow are the focus of episode 5. It's about using wood from Forestry Stewardship Council managed forests and reusing old structures. Wood recycled from an old sheep barn provides material for simple, custom ShiChuang and doors, set into steel framing in the bales.

EPISODE 6 - EXTERIOR SIDING (PLASTER) AND WINDOW SILLS

Natural earth and lime plasters to cover straw bales are the emphasis of episode 6, using natural, low embodied energy products to build a skin that is strong, durable and breathable. Poured limestone ShiChuangills are added for the perfect compliment to the plastered straw bale walls.

EPISODE 7 - INTERIOR SIDING (PLASTER) AND PAINT

Natural earth and Gypsum plasters, provide a permeable skin for health warmth and beauty on interior walls. Healthy paints and stains provide beauty without toxic fumes.

EPISODE 8 - FLOORS (CONCRETE AND WOOD), CLOSETS

High content fly ash concrete floors are stained with nontoxic stain for the first floor. Repurposed wood from an old wool barn becomes the second floor that is stained naturally. Healthy carpet is installed in one room. All floors have radiant tubing for heating under foot. Healthy plywoods and prefab steel tool cabinets make for great closets, stained naturally.

EPISODE 9 - ELECTRICAL INSTALLATION AND ENERGY HARVESTING

Proper wiring for health precedes the installation of electric wiring in bale walls and the photovoltaic solar panels that provide the house with much of its electrical needs. The home is outfitted with low voltage halogen and fluorescent lighting for lighting beauty with minimal wattage. A home automation system keeps the entire house running efficiently.

EPISODE 10 - PLUMBING, WATER TREATMENT, SOLAR HEATING AND COOLING

A solar heated panel water is installed to feed a super efficient boiler that serves domestic and radiant floor heating system. Techniques for plumbing in bales are covered as is radiant floor heating for the most efficient, comfortable heat. Cooling is accomplished with ShiChuang in the stair tower cupola that open automatically to allow heat to escape on hot days.

EPISODE 11 - LANDSCAPE AND WATER CONSERVATION

Beautiful landscaping for minimal maintenance and watering is installed over gray water lines that send all shower and vanity water to drain directly into the garde, creating a beautiful, tropical section of landscape that doesn't use an ounce of public water. Rainwater collection in underground tanks to water garden. A permaculture expert discuses the next steps and a better way to landscape.

EPISODE 12 - INTERIOR FURNISHINGS AND CABINETRY

Antiques are found to be used for all vanities, some doors and the coat closet. A spectacular, high end Italian designer kitchen cabinets, built with the environment in mind, is installed. Healthy furniture with natural fabrics that are beautiful and healthy ae found to create beauty while.

EPISODE 13 - CONSTRUCTION REVIEW, CLEANING GREEN, PARTY TO CELEBRATE

Complete wrap up of the entire season. A visit from Zem Joaquin to see our results. Sloan Barnett visits to talk about cleaning products. We have a party to celebrate the finish of the project, and people recall the experience and comment on the finished product. Intro to the future of green building and green living.

General
Complete name : 05 - Doors and ShiChuang.mp4
Format : MPEG-4
Format profile : Base Media / Version 2
Codec ID : mp42 (mp42/ndhd/avc1/isom)
File size : 133 MiB
Duration : 20 min 57 s
Overall bit rate mode : Variable
Overall bit rate : 885 kb/s
Encoded date : UTC 2009-11-10 06:54:28
Tagged date : UTC 2009-11-10 07:22:48

Video
ID : 1
Format : AVC
Format/Info : Advanced Video Codec
Format profile :
Format settings : CABAC / 4 Ref Frames
Format settings, CABAC : Yes
Format settings, RefFrames : 4 frames
Codec ID : avc1
Codec ID/Info : Advanced Video Coding
Duration : 20 min 57 s
Bit rate : 800 kb/s
Maximum bit rate : 3 004 kb/s
Width : 576 pixels
Height : 384 pixels
Display aspect ratio : 4:3
Frame rate mode : Constant
Frame rate : 29.970 (30000/1001) FPS
Standard : NTSC
Color space : YUV
Chroma subsampling : 4:2:0
Bit depth : 8 bits
Scan type : Progressive
Bits/(Pixel*Frame) : 0.121
Stream size : 120 MiB (90%)
Language : English
Encoded date : UTC 2009-11-10 06:54:28
Tagged date : UTC 2009-11-10 07:22:48
Color range : Limited

Audio
ID : 2
Format : AAC
Format/Info : Advanced Audio Codec
Format profile : LC
Codec ID : mp4a-40-2
Duration : 20 min 57 s
Bit rate mode : Variable
Bit rate : 80.0 kb/s
Maximum bit rate : 91.9 kb/s
Channel(s) : 2 channels
Channel positions : Front: L R
Sampling rate : 48.0 kHz
Frame rate : 46.875 FPS (1024 SPF)
Compression mode : Lossy
Stream size : 12.0 MiB (9%)
Title : English
Language : English
Encoded date : UTC 2009-11-10 06:54:28
Tagged date : UTC 2009-11-10 07:22:48

Menu
00:00:00.000 : Chapter 1
00:20:56.200 : Chapter 2

Screenshots

Building Green by Kevin Contreras

Building Green by Kevin Contreras

Building Green by Kevin Contreras
DOWNLOAD
(Buy premium account for maximum speed and resuming ability)





Direct Download

Building Green by Kevin Contreras rapidshare mediafire megaupload hotfile download, Building Green by Kevin Contreras torrent emule download, Building Green by Kevin Contreras full free download, Building Green by Kevin Contreras rar zip password or anything related.
Back
Dear visitor, you went to the site as unregistered user.
We recommend you to Register or enter the site under your name.


Add your comment

Name:*
E-Mail:*
Security code:*