Home » Tutorial » Namaste Yoga: The Complete Third Season with Erica Blitz
Category: Tutorial
Download Now

Namaste Yoga: The Complete Third Season with Erica Blitz
Namaste Yoga: The Complete Third Season with Erica Blitz
13xDVDRip | English | MP4 | 720 x 480 | AVC ~1000 kbps | 23.976 fps
AAC | 160 Kbps | 48.0 KHz | 2 channels | 04:46:43 | 2.33 GB
Genre: eLearning Video / Yoga, Health


Take your yoga to the next level with new sequences, new instructors and gorgeous new backdrops that will engage you, body, mind and spirit. Let master yoga teacher Erica Blitz guide you through 13 original sequences and powerful new postures including Dolphin Plank, Locust Pose, Eagle Pose and Revolved Standing Hand-to-Foot Pose.
Tap into a quality of inner peace and learn to return to that feeling whenever you are most challenged, on and off the mat.

Align Your Axis - Detoxify your whole body with this cleansing sequence. Learn to be softer on the outside, as you awaken the power of your core. Align Your Axis provides an opportunity to wring out any unwanted emotions, and let go of any thoughts or ideas that cloud your perspective.

Warrior Wisdom - With a steady focus on the breath, Warrior Wisdom cultivates presence that is attentive, aware and complete. Moving slowly with the breath allows a deeper connection of mind and body that will leave you with greater clarity, confidence and strength.

Release and Restore - Release and Restore is a sequence that brings you full circle through a series of poses that create space for reflection. You will release tension in your spine while attuning to the changes even the smallest actions create. What change will you make today?

Create Your Calm - Cultivate a sense of peace and stability with the Create Your Calm sequence. This balancing flow allows for a deeper connection to the earth and its grounding energy. Feel the presence of your inner strength, and welcome a softer awareness with this gentle practice.

Reflect and Connect - Encourage movement from a thoughtful, more centered place with the Reflect and Connect sequence. Engage your whole body with a grounding series of poses that calm and center the mind while releasing tension from shoulders, hips and hamstrings.

Balance and Bend - Stand tall and find your truest state of focus and center with this balancing flow. Use the breath to align your posture and learn to experience your practice, rather than thinking it through. Let go of your mind and connect with the asanas, or physical yoga poses.

Bhakti Flow - Bhakti Flow calls for an expansion of your entire being through the practice of bhakti, devotion. A practice of balance and strength that will call attention to the places in the body where tension hides, Learn to be spacious with your breath, encourage a deeper connection with your center, and move forward with purest intent.

Open and Ground - A dynamic sequence for your upper body, Open and Ground will work your torso with a series of heart opening poses. By keeping a steady connection to the earth and lifting and opening the chest, the experience of feeling grounded while moving energy up and outward can be more fully explored.

Stabilize and Center - Stabilize and Center allows for the creation of a deeper connection with your core, as well as the present moment. Through the practice of conscious breathing, movement and attention to the postures, a state of centered awareness can be cultivated.

Prana Flow - This vinyasa flow pulses between moments of stillness and dynamic movement with every breath. Prana Flow calls for a constant presence of mind and steadiness of breath. Through this moving meditation, you will explore how the stability and consistency of breath offers you freedom of spirit.

Grace and Gratitude - A joyous and elegant sequence, Grace and Gratitude opens your front body with a series of dynamic backbends. Shine the light of your heart by learning to be spacious with your breath. This practice encourages action stirred from intentions of love, forgiveness, and gratitude.

Reconnect and Refine - Connect with the essence of your being with Reconnect and Refine. This exhilarating sequence encourages you to find comfort in the present moment, and let go of preconceived expectations or agendas. It is not about where you are going, but where you are.

General
Complete name : 09.YIN YOGA.mp4
Format : MPEG-4
Format profile : Base Media
Codec ID : isom (mp41)
File size : 887 MiB
Duration : 1 h 5 min
Overall bit rate mode : Variable
Overall bit rate : 1 893 kb/s
Encoded date : UTC 2013-04-12 10:39:17
Tagged date : UTC 2013-04-12 10:39:21

Video
ID : 2
Format : AVC
Format/Info : Advanced Video Codec
Format profile : [email protected]
Format settings, CABAC : No
Format settings, ReFrames : 2 frames
Format settings, GOP : M=1, N=24
Muxing mode : Container [email protected]
Codec ID : avc1
Codec ID/Info : Advanced Video Coding
Duration : 1 h 5 min
Bit rate : 1 757 kb/s
Width : 848 pixels
Height : 480 pixels
Display aspect ratio : 16:9
Frame rate mode : Constant
Frame rate : 29.970 (30000/1001) FPS
Standard : NTSC
Color space : YUV
Chroma subsampling : 4:2:0
Bit depth : 8 bits
Scan type : Progressive
Bits/(Pixel*Frame) : 0.144
Stream size : 824 MiB (93%)
Language : English
Color range : Full
Color primaries : BT.601 NTSC
Transfer characteristics : BT.601
Matrix coefficients : BT.601
Menus : 3

Audio
ID : 1
Format : AAC
Format/Info : Advanced Audio Codec
Format profile : LC
Codec ID : 40
Duration : 1 h 5 min
Bit rate mode : Variable
Bit rate : 128 kb/s
Maximum bit rate : 157 kb/s
Channel(s) : 2 channels
Channel positions : Front: L R
Sampling rate : 48.0 kHz
Frame rate : 46.875 FPS (1024 spf)
Compression mode : Lossy
Stream size : 60.0 MiB (7%)
Language : English

Menu #2
ID : 3
Codec ID : text
Duration : 1 h 5 min
Encoded date : UTC 2013-04-12 10:39:21
Tagged date : UTC 2013-04-12 10:39:21
Menu For : 2


Namaste Yoga: The Complete Third Season with Erica Blitz

Download link:


Links are Interchangeable - No Password - Single Extraction
Direct Download

Namaste Yoga: The Complete Third Season with Erica Blitz rapidshare mediafire megaupload hotfile download, Namaste Yoga: The Complete Third Season with Erica Blitz torrent emule download, Namaste Yoga: The Complete Third Season with Erica Blitz full free download, Namaste Yoga: The Complete Third Season with Erica Blitz rar zip password or anything related.
Back
Dear visitor, you went to the site as unregistered user.
We recommend you to Register or enter the site under your name.


Add your comment

Name:*
E-Mail:*
Security code:*