Home » Tutorial » David Berceli - Pathway to Healing A Trauma Recovery Program
Category: Tutorial
Download Now

David Berceli - Pathway to Healing A Trauma Recovery Program

David Berceli - Pathway to Healing A Trauma Recovery Program
DVDRip | AVI | English | 692 x 528 | DX50 ~1247 kbps | 29.970 fps
AC-3 ~192 Kbps | 48.0 KHz | 2 channels | 01:23:02 | 861 MB
Genre: eLearning Video / Health, Therapy, Rehabilitation

Pathway to Healing a ground-breaking, in-depth video workshop designed for anyone who has experienced trauma. Conducted by David Berceli, an internationally known trauma recovery therapist, the workshop is designed to illuminate the connection between mind, body and spirit. It includes exercises designed to release chronic muscular tension, psychological insight to restore healthy thinking and a personal reflection process to rebuild one's belief system.
Whether it's war, terrorism, natural disasters, sudden loss of life, domestic or sexual abuse, the goal is to restore an inner connection, to help people who are traumatized move forward in their recovery process confidently and securely.

The magic of the approach of David Bercelis Trauma Release Process is that it is versatile and can be used to affect a wide range of hyperarousal states such as anxiety, irritability, exaggerated, startle response, etc.

It can often be utilized by individuals without professional guidance.

However people with physical and/or psychological conditions would be wise to use these exercises in collaboration with a medical professional.

This process can be used as either a stand-alone process or in conjunction with other modalities.

Therapists, counselors, life coaches, together with emergency response personnel, will find the Trauma Release Exercises (TRE) detailed by Berceli a powerful adjunct in their work of restoring wholeness to human life everywhere



General
Complete name : David Berceli - Pathway to Healing DVD - Part 02 of 05 - Biology of Trauma.avi
Format : AVI
Format/Info : Audio Video Interleave
File size : 110 MiB
Duration : 10mn 33s
Overall bit rate : 1 450 Kbps

Video
ID : 0
Format : MPEG-4 Visual
Format settings, BVOP : Yes
Format settings, QPel : No
Format settings, GMC : No warppoints
Format settings, Matrix : Default (H.263)
Codec ID : DX50
Codec ID/Hint : DivX 5
Duration : 10mn 33s
Bit rate : 1 247 Kbps
Width : 692 pixels
Height : 528 pixels
Display aspect ratio : 4:3
Frame rate : 29.970 fps
Color space : YUV
Chroma subsampling : 4:2:0
Bit depth : 8 bits
Scan type : Progressive
Compression mode : Lossy
Bits/(Pixel*Frame) : 0.114
Stream size : 94.1 MiB (86%)
Title : Video
Writing library : DivX 6.8.5 (UTC 2009-08-20)

Audio
ID : 1
Format : AC-3
Format/Info : Audio Coding 3
Mode extension : CM (complete main)
Format settings, Endianness : Big
Codec ID : 2000
Duration : 10mn 33s
Bit rate mode : Constant
Bit rate : 192 Kbps
Channel(s) : 2 channels
Channel positions : Front: L R
Sampling rate : 48.0 KHz
Compression mode : Lossy
Stream size : 14.5 MiB (13%)
Alignment : Split accross interleaves
Interleave, duration : 33 ms (1.00 video frame)
Interleave, preload duratio : 500 ms
Title : Audio

Screenshots

David Berceli - Pathway to Healing A Trauma Recovery Program





× David Berceli - Pathway to Healing A Trauma Recovery Program


David Berceli - Pathway to Healing A Trauma Recovery Program



Wow! What a picture!






David Berceli - Pathway to Healing A Trauma Recovery Program





× David Berceli - Pathway to Healing A Trauma Recovery Program


David Berceli - Pathway to Healing A Trauma Recovery Program



Wow! What a picture!






David Berceli - Pathway to Healing A Trauma Recovery Program





× David Berceli - Pathway to Healing A Trauma Recovery Program


David Berceli - Pathway to Healing A Trauma Recovery Program



Wow! What a picture!






David Berceli - Pathway to Healing A Trauma Recovery Program





× David Berceli - Pathway to Healing A Trauma Recovery Program


David Berceli - Pathway to Healing A Trauma Recovery Program



Wow! What a picture!






David Berceli - Pathway to Healing A Trauma Recovery Program





× David Berceli - Pathway to Healing A Trauma Recovery Program


David Berceli - Pathway to Healing A Trauma Recovery Program



Wow! What a picture!






David Berceli - Pathway to Healing A Trauma Recovery Program





× David Berceli - Pathway to Healing A Trauma Recovery Program


David Berceli - Pathway to Healing A Trauma Recovery Program

Download link:

Buy Premium To Support Me & Get Resumable Support & Max Speed:

nitroflare_com:
http://nitroflare.com/view/EF5BEE1998006E9/vuryr.David.Berceli..Pathway.to.Healing.A.Trauma.Recovery.Program.part1.rar
http://nitroflare.com/view/922F00753A64BF4/vuryr.David.Berceli..Pathway.to.Healing.A.Trauma.Recovery.Program.part2.rar
http://nitroflare.com/view/E57A71B4E784469/vuryr.David.Berceli..Pathway.to.Healing.A.Trauma.Recovery.Program.part3.rar
http://nitroflare.com/view/539DA17C699227F/vuryr.David.Berceli..Pathway.to.Healing.A.Trauma.Recovery.Program.part4.rar
http://nitroflare.com/view/9C3ECE4CDD0C4BB/vuryr.David.Berceli..Pathway.to.Healing.A.Trauma.Recovery.Program.part5.rar
http://nitroflare.com/view/A401ECA5CEB87D2/vuryr.David.Berceli..Pathway.to.Healing.A.Trauma.Recovery.Program.part6.rar
http://nitroflare.com/view/6484B6FA09B5031/vuryr.David.Berceli..Pathway.to.Healing.A.Trauma.Recovery.Program.part7.rar
http://nitroflare.com/view/D270E982ABC3627/vuryr.David.Berceli..Pathway.to.Healing.A.Trauma.Recovery.Program.part8.rar

rapidgator_net:
http://rapidgator.net/file/08f588b48a2c8089e5fbf6584cff3f24/vuryr.David.Berceli..Pathway.to.Healing.A.Trauma.Recovery.Program.part1.rar.html
http://rapidgator.net/file/9ecc812b92cebe90b0799d12c3f3a88d/vuryr.David.Berceli..Pathway.to.Healing.A.Trauma.Recovery.Program.part2.rar.html
http://rapidgator.net/file/eeb25421df1cd886191e0db893e136ba/vuryr.David.Berceli..Pathway.to.Healing.A.Trauma.Recovery.Program.part3.rar.html
http://rapidgator.net/file/259ff81a763f853c5925353d6885c6b2/vuryr.David.Berceli..Pathway.to.Healing.A.Trauma.Recovery.Program.part4.rar.html
http://rapidgator.net/file/7c6f841038de92752305eb9782f84ca4/vuryr.David.Berceli..Pathway.to.Healing.A.Trauma.Recovery.Program.part5.rar.html
http://rapidgator.net/file/1ef51f0e89739d17407e0a0ee15d2a41/vuryr.David.Berceli..Pathway.to.Healing.A.Trauma.Recovery.Program.part6.rar.html
http://rapidgator.net/file/1cb3d6ae69c45574f61d8228253d5c8b/vuryr.David.Berceli..Pathway.to.Healing.A.Trauma.Recovery.Program.part7.rar.html
http://rapidgator.net/file/7681f8fd8bd25f587becca4406309380/vuryr.David.Berceli..Pathway.to.Healing.A.Trauma.Recovery.Program.part8.rar.html


Links are Interchangeable - No Password - Single Extraction
Direct Download

David Berceli - Pathway to Healing A Trauma Recovery Program rapidshare mediafire megaupload hotfile download, David Berceli - Pathway to Healing A Trauma Recovery Program torrent emule download, David Berceli - Pathway to Healing A Trauma Recovery Program full free download, David Berceli - Pathway to Healing A Trauma Recovery Program rar zip password or anything related.
Back
Dear visitor, you went to the site as unregistered user.
We recommend you to Register or enter the site under your name.


Add your comment

Name:*
E-Mail:*
Security code:*