Home » Tutorial » How To Become A Personal Trainer Course - ITU Learning
Category: Tutorial
Download Now

How To Become A Personal Trainer Course - ITU Learning

How To Become A Personal Trainer Course - ITU Learning
WEBRip | English | MP4 | 1280 x 720 | AVC ~6545 kbps | 30 fps
AAC | 317 Kbps | 48.0 KHz | 2 channels | 02:53:37 | 8.72 GB
Genre: eLearning Video / Small Business, Entrepreneurs, Fitness

Interested in becoming a personal fitness trainer, exercise consultant or an overall fitness professional? You came to the right place! We have all the training tools you will need to reach your goal. This course is designed by a team of experts who understand the importance and growing need of trained professionals in the personal training industry. You will cover all the basics on how to become a personal trainer and an industry specific Q&A.
Content:

1.1 Intro
1.2 Requirements
1.3 Skills For A Successful Personal Trainer
1.4 Questions To Consider
1.5 Certifications
1.6 Job Opportunities
1.7 Salary For Personal Trainer
1.8 First Aid And CPR
1.9 Time Needed To Become A Personal Trainer
1.10 Know Your Clients
1.11 Interesting And Fun
1.12 Common Mistakes
1.13 Retaining Your Clients
1.14 Insurance
1.15 Summary

Value: $599
More Info: Salepage



General
Complete name : 07-Salary For Personal Trainer.mp4
Format : MPEG-4
Format profile : Base Media / Version 2
Codec ID : mp42
File size : 428 MiB
Duration : 8mn 41s
Overall bit rate mode : Variable
Overall bit rate : 6 873 Kbps
Encoded date : UTC 2015-01-26 19:16:04
Tagged date : UTC 2015-01-26 19:16:09
©TIM : 00:00:00:00
©TSC : 30
©TSZ : 1

Video
ID : 1
Format : AVC
Format/Info : Advanced Video Codec
Format profile : [email protected]
Format settings, CABAC : Yes
Format settings, ReFrames : 3 frames
Format settings, GOP : M=3, N=30
Codec ID : avc1
Codec ID/Info : Advanced Video Coding
Duration : 8mn 41s
Bit rate mode : Variable
Bit rate : 6 545 Kbps
Maximum bit rate : 10 000 Kbps
Width : 1 280 pixels
Height : 720 pixels
Display aspect ratio : 16:9
Frame rate mode : Constant
Frame rate : 30.000 fps
Standard : NTSC
Color space : YUV
Chroma subsampling : 4:2:0
Bit depth : 8 bits
Scan type : Progressive
Bits/(Pixel*Frame) : 0.237
Stream size : 407 MiB (95%)
Language : English
Encoded date : UTC 2015-01-26 19:16:04
Tagged date : UTC 2015-01-26 19:16:04
Color range : Limited
Color primaries : BT.709
Transfer characteristics : BT.709
Matrix coefficients : BT.709

Audio
ID : 2
Format : AAC
Format/Info : Advanced Audio Codec
Format profile : LC
Codec ID : 40
Duration : 8mn 41s
Source duration : 8mn 42s
Bit rate mode : Constant
Bit rate : 317 Kbps
Channel(s) : 2 channels
Channel positions : Front: L R
Sampling rate : 48.0 KHz
Compression mode : Lossy
Stream size : 19.7 MiB (5%)
Source stream size : 19.7 MiB (5%)
Language : English
Encoded date : UTC 2015-01-26 19:16:04
Tagged date : UTC 2015-01-26 19:16:04

Screenshots

How To Become A Personal Trainer Course - ITU Learning

Download link:

nitroflare_com:
http://nitroflare.com/view/4E71EDE85CDAA79/49zvb.H.T.B.A.P.T.C.ITU.L29.10.part01.rar
http://nitroflare.com/view/B4E2789D960C1CA/49zvb.H.T.B.A.P.T.C.ITU.L29.10.part02.rar
http://nitroflare.com/view/46C3977A353DC07/49zvb.H.T.B.A.P.T.C.ITU.L29.10.part03.rar
http://nitroflare.com/view/C7541E8F57404D1/49zvb.H.T.B.A.P.T.C.ITU.L29.10.part04.rar
http://nitroflare.com/view/4D383F5D64A22A4/49zvb.H.T.B.A.P.T.C.ITU.L29.10.part05.rar
http://nitroflare.com/view/0F27ED04893E6BD/49zvb.H.T.B.A.P.T.C.ITU.L29.10.part06.rar
http://nitroflare.com/view/D52761B331026DD/49zvb.H.T.B.A.P.T.C.ITU.L29.10.part07.rar
http://nitroflare.com/view/460741B9E9F8B3E/49zvb.H.T.B.A.P.T.C.ITU.L29.10.part08.rar
http://nitroflare.com/view/05F40B0E04ACE5E/49zvb.H.T.B.A.P.T.C.ITU.L29.10.part09.rar

bytewhale_com:
https://bytewhale.com/b82rnkt0lz1t/49zvb.H.T.B.A.P.T.C.ITU.L29.10.part01.rar
https://bytewhale.com/wzhzyw1kobuk/49zvb.H.T.B.A.P.T.C.ITU.L29.10.part02.rar
https://bytewhale.com/74n17vctv3va/49zvb.H.T.B.A.P.T.C.ITU.L29.10.part03.rar
https://bytewhale.com/q0dghj58dnmn/49zvb.H.T.B.A.P.T.C.ITU.L29.10.part04.rar
https://bytewhale.com/f6hpqs6m0xzg/49zvb.H.T.B.A.P.T.C.ITU.L29.10.part05.rar
https://bytewhale.com/cxcygps58nff/49zvb.H.T.B.A.P.T.C.ITU.L29.10.part06.rar
https://bytewhale.com/nofhuyvb6z75/49zvb.H.T.B.A.P.T.C.ITU.L29.10.part07.rar
https://bytewhale.com/s3oh2a29y27b/49zvb.H.T.B.A.P.T.C.ITU.L29.10.part08.rar
https://bytewhale.com/x4k75ts6knyt/49zvb.H.T.B.A.P.T.C.ITU.L29.10.part09.rar

uploadgig_com:
http://uploadgig.com/file/download/0bB1C48391b87e64/49zvb.H.T.B.A.P.T.C.ITU.L29.10.part01.rar
http://uploadgig.com/file/download/910e11E823bd637f/49zvb.H.T.B.A.P.T.C.ITU.L29.10.part02.rar
http://uploadgig.com/file/download/d3b1fe5F2BD07f41/49zvb.H.T.B.A.P.T.C.ITU.L29.10.part03.rar
http://uploadgig.com/file/download/a9726a20Ff1Ee6Af/49zvb.H.T.B.A.P.T.C.ITU.L29.10.part04.rar
http://uploadgig.com/file/download/3c20e722740673B0/49zvb.H.T.B.A.P.T.C.ITU.L29.10.part05.rar
http://uploadgig.com/file/download/06Ef27c161cA6fc9/49zvb.H.T.B.A.P.T.C.ITU.L29.10.part06.rar
http://uploadgig.com/file/download/b4112d28b8697403/49zvb.H.T.B.A.P.T.C.ITU.L29.10.part07.rar
http://uploadgig.com/file/download/704630959987af8e/49zvb.H.T.B.A.P.T.C.ITU.L29.10.part08.rar
http://uploadgig.com/file/download/9ec0165039944D8F/49zvb.H.T.B.A.P.T.C.ITU.L29.10.part09.rar

Links are Interchangeable - No Password - Single Extraction
Direct Download

How To Become A Personal Trainer Course - ITU Learning rapidshare mediafire megaupload hotfile download, How To Become A Personal Trainer Course - ITU Learning torrent emule download, How To Become A Personal Trainer Course - ITU Learning full free download, How To Become A Personal Trainer Course - ITU Learning rar zip password or anything related.
Back
Dear visitor, you went to the site as unregistered user.
We recommend you to Register or enter the site under your name.


Add your comment

Name:*
E-Mail:*
Security code:*