Home » Tutorial » How to be a Megalomaniac with Philip H. Farber
Category: Tutorial
Download Now

How to be a Megalomaniac with Philip H. Farber

How to be a Megalomaniac with Philip H. Farber
DVDRip | MP4 | English | 632 x 476 | AVC ~1509 kbps | 29.970 fps
AAC ~128 Kbps | 48.0 KHz | 2 channels | 01:57:13 | 1.34 GB
Genre: eLearning Video / Psychology and Behavior, Hypnosis

Do you want it all? Now's your chance to learn how to take control of your life - AND EVERYTHING ELSE! This is the ONLY seminar video of its kind! Not only is this a practical, nitty-gritty, down-and-dirty introduction to Megalo Skills, but it is also an inspired rant on the meaning of life, and a fabulous power-generating opportunity for you! Ever want to start your own religion or mass movement? Whether you're a full-tilt guru wannabe or a former follower with the will to know how your mind was warped, you'll agree that this seminar is the ONE TRUE WAY. Learn the hypnotic secrets of the televangelists!
Watch as Philip H. Farber, the dynamic, dreadlocked author of FutureRitual: Magick for the 21stCentury, carries out his plans for world domination right before your very eyes. You can sit back and watch, ride his coattails, or use what you will learn from this video to launch your own Megalo Schemes.

Do you want money or sex? Forget it! This is about getting POWER. When you have power, everything else follows!

* Go beyond rapport - learn to generate CHARISMA at will!
* Influence large groups of people, without saying a word!
* Learn televangelist-style hands-on healing - better than Benny Hinn!
* Awaken your Inner Child, give it a spanking, and put it to work mowing the lawn!
* Lose your inhibitions - and keep the profits!


General
Complete name : Megalomaniac.mp4
Format : MPEG-4
Format profile : Base Media / Version 2
Codec ID : mp42
File size : 1.34 GiB
Duration : 1h 57mn
Overall bit rate mode : Variable
Overall bit rate : 1 642 Kbps
Movie name : DVD 1.Title1
Album : DVD 1
Encoded date : UTC 2016-10-24 03:59:07
Tagged date : UTC 2016-10-24 04:54:20
Writing application : DVDFab 9.2.3.9
covr : Unknown kind of value!

Video
ID : 1
Format : AVC
Format/Info : Advanced Video Codec
Format profile : [email protected]
Format settings, CABAC : No
Format settings, ReFrames : 1 frame
Format settings, GOP : M=1, N=24
Codec ID : avc1
Codec ID/Info : Advanced Video Coding
Duration : 1h 57mn
Source duration : 1h 57mn
Bit rate : 1 509 Kbps
Width : 632 pixels
Height : 476 pixels
Display aspect ratio : 4:3
Frame rate mode : Constant
Frame rate : 29.970 fps
Color space : YUV
Chroma subsampling : 4:2:0
Bit depth : 8 bits
Scan type : Progressive
Bits/(Pixel*Frame) : 0.167
Stream size : 1.24 GiB (92%)
Source stream size : 1.24 GiB (92%)
Writing library : x264 core 142
Encoding settings : cabac=0 / ref=1 / deblock=1:0:0 / analyse=0x1:0x111 / me=umh / subme=6 / psy=0 / mixed_ref=0 / me_range=12 / chroma_me=1 / trellis=0 / 8x8dct=0 / cqm=0 / deadzone=21,11 / fast_pskip=0 / chroma_qp_offset=0 / threads=4 / lookahead_threads=1 / sliced_threads=0 / nr=0 / decimate=1 / interlaced=0 / bluray_compat=0 / constrained_intra=0 / bframes=0 / weightp=0 / keyint=24 / keyint_min=13 / scenecut=40 / intra_refresh=0 / rc=abr / mbtree=0 / bitrate=1509 / ratetol=1.0 / qcomp=0.60 / qpmin=0 / qpmax=69 / qpstep=4 / ip_ratio=1.40 / aq=1:1.00
Encoded date : UTC 2016-10-24 03:59:07
Tagged date : UTC 2016-10-24 04:54:20
Color range : Limited
Color primaries : BT.601 NTSC
Transfer characteristics : BT.709
Matrix coefficients : BT.601

Audio
ID : 2
Format : AAC
Format/Info : Advanced Audio Codec
Format profile : LC
Codec ID : 40
Duration : 1h 57mn
Bit rate mode : Variable
Bit rate : 128 Kbps
Maximum bit rate : 133 Kbps
Channel(s) : 2 channels
Channel positions : Front: L R
Sampling rate : 48.0 KHz
Compression mode : Lossy
Stream size : 107 MiB (8%)
Title : English (aac 2.0)
Language : English
Encoded date : UTC 2016-10-24 03:59:07
Tagged date : UTC 2016-10-24 04:54:20

Menu
ID : 3
Codec ID : text
Duration : 1h 57mn
Encoded date : UTC 2016-10-24 03:59:07
Tagged date : UTC 2016-10-24 04:54:20
Source duration : 7033126
Source frame count : 15
Source stream size : 351
Frame count : 15
Stream size : 351

Screenshots

How to be a Megalomaniac with Philip H. Farber

Download link:


Links are Interchangeable - No Password - Single Extraction
Direct Download

How to be a Megalomaniac with Philip H. Farber rapidshare mediafire megaupload hotfile download, How to be a Megalomaniac with Philip H. Farber torrent emule download, How to be a Megalomaniac with Philip H. Farber full free download, How to be a Megalomaniac with Philip H. Farber rar zip password or anything related.
Back
Dear visitor, you went to the site as unregistered user.
We recommend you to Register or enter the site under your name.


Add your comment

Name:*
E-Mail:*
Security code:*