Home » Tutorial » Lick Library Van Halen Guitar Techniques 2011
Category: Tutorial
Download Now

Lick Library - Van Halen Guitar Techniques (2011)

Lick Library - Van Halen Guitar Techniques (2011)
DVD | VOB | MPEG2 2463kbps | English | 720x576 | 29.97fps | 1h 27mins | AC3 stereo 192kbps | 2.35 GB
Genre: Video Training


Learn 50 trademark Van Halen licks with Stuart Bull! This excellent DVD will teach you some of the guitar techniques that influenced a million rock guitarists! Lessons include two handed tapping, tremelo picking, screaming harmonics and much moreIf you're looking to take your playing to the next level, this DVD will provide you with an arsenal of Van Halen style licks that you can incorporate into your rock soloing repertoire! The world of rock guitar was turned on it's head with the arrival of Eddie Van Halen. As his band paved the way for modern rock stage-theatrics, EVH prompted a revolution of guitar technique, introducing many of the tricks and skills that have become the staple requirements of rock and metal players since. Learn two-handed tapping, tremolo picking and harmonics in the style of the original pioneer, and gain an arsenal of powerful sounds to energise you rock solos.

Mediainfo:

Format : MPEG-PS
File size : 240 MiB
Duration : 12mn 9s
Overall bit rate : 2 765 Kbps
Video #224
ID : 224 (0xE0)
Format : MPEG Video
Format version : Version 2
Format profile : [email protected]
Format settings, Matrix : Default
Duration : 12mn 9s
Bit rate mode : Variable
Bit rate : 2 463 Kbps
Nominal bit rate : 6 000 Kbps
Width : 720 pixels
Height : 576 pixels
Display aspect ratio : 4:3
Frame rate : 25.000 fps
Standard : PAL
Colorimetry : 4:2:0
Scan type : Interlaced
Scan order : Bottom Field First
Bits/(Pixel*Frame) : 0.238
Stream size : 214 MiB (89%)
Audio #128
ID : 128 (0x80)
Format : AC-3
Format/Info : Audio Coding 3
Duration : 12mn 9s
Bit rate mode : Constant
Bit rate : 192 Kbps
Channel(s) : 2 channels
Channel positions : L R
Sampling rate : 48.0 KHz
Stream size : 16.7 MiB (7%)

Lick Library - Van Halen Guitar Techniques (2011)


Link Download
http://extabit.com/file/2a0pr3nxszjj5/Lick_Library_-_Van_Halen_Guitar_Techniques.part01.rar
http://extabit.com/file/2a0pr3nxszg9d/Lick_Library_-_Van_Halen_Guitar_Techniques.part02.rar
http://extabit.com/file/2a0pr3nxszjld/Lick_Library_-_Van_Halen_Guitar_Techniques.part04.rar
http://extabit.com/file/2a0pr3nxszji9/Lick_Library_-_Van_Halen_Guitar_Techniques.part05.rar
http://extabit.com/file/2a0pr3nxszgc1/Lick_Library_-_Van_Halen_Guitar_Techniques.part06.rar
http://extabit.com/file/2a0pr3nxszjkx/Lick_Library_-_Van_Halen_Guitar_Techniques.part07.rar
http://extabit.com/file/2a0pr3nxszjip/Lick_Library_-_Van_Halen_Guitar_Techniques.part08.rar
http://extabit.com/file/2a0pr3nxszjjl/Lick_Library_-_Van_Halen_Guitar_Techniques.part09.rar
http://extabit.com/file/2a0pr3nxszptt/Lick_Library_-_Van_Halen_Guitar_Techniques.part03.rar
http://extabit.com/file/2a0pr3nxszpvl/Lick_Library_-_Van_Halen_Guitar_Techniques.part10.rar

or

http://shareflare.net/download/80882.87e0e576e867d8869b4cab9cd6b2/Lick_Library_-_Van_Halen_Guitar_Techniques.part08.rar.html
http://shareflare.net/download/64489.6fd1f680f1326f44d1767a6aa4d5/Lick_Library_-_Van_Halen_Guitar_Techniques.part07.rar.html
http://shareflare.net/download/82280.8e77667359213184ee2e78e556bd/Lick_Library_-_Van_Halen_Guitar_Techniques.part06.rar.html
http://shareflare.net/download/12130.1c6a6dce8dfff4d156488041ce6c/Lick_Library_-_Van_Halen_Guitar_Techniques.part01.rar.html
http://shareflare.net/download/76759.7d66f0cb5ae6a7c358e64fc84612/Lick_Library_-_Van_Halen_Guitar_Techniques.part09.rar.html
http://shareflare.net/download/37419.35f30c947af1a4e14f33f0d21268/Lick_Library_-_Van_Halen_Guitar_Techniques.part03.rar.html
http://shareflare.net/download/43758.4b531b8bcb037dd42e0a83590952/Lick_Library_-_Van_Halen_Guitar_Techniques.part05.rar.html
http://shareflare.net/download/69351.69bbe4c4eef8395e2d8defc0b7ec/Lick_Library_-_Van_Halen_Guitar_Techniques.part02.rar.html
http://shareflare.net/download/77684.79eecc4c34b65ab6c1030e73c86b/Lick_Library_-_Van_Halen_Guitar_Techniques.part10.rar.html

or

http://rapidgator.net/file/17261135/Lick_Library_-_Van_Halen_Guitar_Techniques.part01.rar.html
http://rapidgator.net/file/17261154/Lick_Library_-_Van_Halen_Guitar_Techniques.part02.rar.html
http://rapidgator.net/file/17261193/Lick_Library_-_Van_Halen_Guitar_Techniques.part03.rar.html
http://rapidgator.net/file/17261234/Lick_Library_-_Van_Halen_Guitar_Techniques.part04.rar.html
http://rapidgator.net/file/17261071/Lick_Library_-_Van_Halen_Guitar_Techniques.part05.rar.html
http://rapidgator.net/file/17261045/Lick_Library_-_Van_Halen_Guitar_Techniques.part06.rar.html
http://rapidgator.net/file/17261048/Lick_Library_-_Van_Halen_Guitar_Techniques.part07.rar.html
http://rapidgator.net/file/17261046/Lick_Library_-_Van_Halen_Guitar_Techniques.part08.rar.html
http://rapidgator.net/file/17261138/Lick_Library_-_Van_Halen_Guitar_Techniques.part09.rar.html
http://rapidgator.net/file/17261101/Lick_Library_-_Van_Halen_Guitar_Techniques.part10.rar.html


All links are interchangable
No Mirror below, Please!
Direct Download

Lick Library Van Halen Guitar Techniques 2011 rapidshare mediafire megaupload hotfile download, Lick Library Van Halen Guitar Techniques 2011 torrent emule download, Lick Library Van Halen Guitar Techniques 2011 full free download, Lick Library Van Halen Guitar Techniques 2011 rar zip password or anything related.
Back
Dear visitor, you went to the site as unregistered user.
We recommend you to Register or enter the site under your name.


Add your comment

Name:*
E-Mail:*
Security code:*