Home » Music » VA - The Real... Cuba (The Ultimate Collection) [3CD] (2017)
Category: Music
Download Now

VA - The Real... Cuba (The Ultimate Collection) [3CD] (2017)
Artist: Various Artists
Title: The Real... Cuba (The Ultimate Collection)
Year Of Release: 2017-09-27
Label: Sony Music Entertainment (EU)
Genre: Pop/Rock, Latin, Cuban Traditions
Quality: FLAC (tracks+.cue+.log) | MP3 320kbps
Total Time: 03:15:35
Total Size: 1,19 Gb | 463,66 Mb (Full Scans-10,96 Mb)




54 brilliant tracks across 3 CDs with a focus on 50s, 60s and 70s music and featuring icons such as Perez Prado, Beny Moré and Irakere. Packaged in an attractive fold out card digipack.
Release of this 3CD-Set: 2017, September, 27 [CDs Sony Music Entertainment (EU), Cat.# 88985474592 / UPC: 889854745929]
This compilation (p)(c) 2017 Sony Music Entertainment Espana S.L.
Distributed by Sony Music Entertainment
Made in the EU by Sony Music Entertainment International Services, GmbH, Germany

Tracklist:

Disc 1

01. Compay Segundo y Su Grupo: Chan Chan
02. Ruben Gonzalez y Orquesta America del 55: Los Marcianos
03. Ibrahim Ferrer: Un Son para el Guayabero
04. Celina Gonzalez y Conjunto Campo Alegre: Lagrimas Negras
05. Beny More: Bonito y Sabroso
06. Orquesta Aragon: El Bodeguero
07. Desi Arnaz and His Orchestra: Babalu
08. Eliades Ochoa Y El Cuarteto Patria: Adios Compay Gato
09. Trio Los Hidalgos: Ay Mama Ines
10. Trio Kaisse: Aquellos Ojos Verdes
11. Orquesta Riverside: El Amor de Mi Bohio
12. Celina Gonzalez: Yo Soy el Punto Cubano
13. Trio Los Embajadores: Toda una Vida
14. Voces Latinas: Amorosa Guajira
15. Hermanos Rigual: Cuando Calienta el Sol
16. Caridad Cuervo y Conjunto Caney: Yo Soy Carinosa
17. Sindo y Maria Elena con el Conjunto Caney: Quiereme Mucho
18. Chappottin y Sus Estrellas: Yo Si Como Candela

 Dynamic Range Meter log CD1--------------------------------------------------------------------------------
Analyzed: Beny More / The Real... Cuba (CD1) (1)
Caridad Cuervo y Conjunto Caney / The Real... Cuba (CD1) (2)
Celina Gonzalez y Conjunto Campo Alegre / The Real... Cuba (CD1) (3)
Celina Gonzalez / The Real... Cuba (CD1) (4)
Chappottin y Sus Estrellas / The Real... Cuba (CD1) (5)
Compay Segundo y Su Grupo / The Real... Cuba (CD1) (6)
Desi Arnaz and His Orchestra / The Real... Cuba (CD1) (7)
Eliades Ochoa Y El Cuarteto Patria / The Real... Cuba (CD1) (8)
Hermanos Rigual / The Real... Cuba (CD1) (9)
Ibrahim Ferrer / The Real... Cuba (CD1) (10)
Orquesta Aragon / The Real... Cuba (CD1) (11)
Orquesta Riverside / The Real... Cuba (CD1) (12)
Ruben Gonzalez y Orquesta America del 55 / The Real... Cuba (CD1) (13)
Sindo y Maria Elena con el Conjunto Caney / The Real... Cuba (CD1) (14)
Trio Kaisse / The Real... Cuba (CD1) (15)
Trio Los Embajadores / The Real... Cuba (CD1) (16)
Trio Los Hidalgos / The Real... Cuba (CD1) (17)
Voces Latinas / The Real... Cuba (CD1) (18)
--------------------------------------------------------------------------------

DR Peak RMS Duration Track
--------------------------------------------------------------------------------
DR9 0.00 dB -10.05 dB 2:55 05-Bonito y Sabroso
DR7 -1.60 dB -9.96 dB 2:43 16-Yo Soy Carinosa
DR11 -0.09 dB -12.49 dB 3:43 04-Lagrimas Negras
DR10 -0.12 dB -12.70 dB 4:01 12-Yo Soy el Punto Cubano
DR9 -1.82 dB -12.48 dB 3:12 18-Yo Si Como Candela
DR9 -0.09 dB -10.95 dB 4:29 01-Chan Chan
DR7 -1.57 dB -10.03 dB 3:34 07-Babalu
DR9 -1.80 dB -12.99 dB 5:22 08-Adios Compay Gato
DR11 -0.10 dB -12.10 dB 2:24 15-Cuando Calienta el Sol
DR10 -0.10 dB -12.03 dB 4:35 03-Un Son para el Guayabero
DR10 0.00 dB -11.60 dB 3:09 06-El Bodeguero
DR8 -0.93 dB -10.37 dB 3:36 11-El Amor de Mi Bohio
DR8 -0.09 dB -10.41 dB 2:50 02-Los Marcianos
DR7 -3.15 dB -11.58 dB 3:47 17-Quiereme Mucho
DR7 -2.00 dB -11.41 dB 3:34 10-Aquellos Ojos Verdes
DR8 -0.60 dB -10.82 dB 2:48 13-Toda una Vida
DR10 -0.20 dB -11.77 dB 2:55 09-Ay Mama Ines
DR7 -0.61 dB -9.78 dB 3:12 14-Amorosa Guajira
--------------------------------------------------------------------------------

Number of tracks: 18
Official DR value: DR9

Samplerate: 44100 Hz
Channels: 2
Bits per sample: 16
Bitrate: 892 kbps
Codec: FLAC

Disc 2

01. Joseito Fernandez: Guajira Guantanamera
02. Pacho Alonso con la Orquesta Egrem: El Manisero
03. Eliades Ochoa Y El Cuarteto Patria: Maria Cristina
04. Omara Portuondo: Nosotros
05. Orquesta Enrique Jorrin: La Guarapachanga
06. Irakere: Dile a Catalina
07. Los Modernistas: Siboney
08. Perez Prado: Mambo No. 5
09. Orquesta America: Me Lo Dijo Adela
10. Paulina Alvarez: Echale Salsita
11. Rita Gil: Tu Me Acostumbraste
12. Duo Los Compadres: Sarandonga
13. Bola de Nieve: Drume Negrita
14. Carlos Embale: El Diablo Tun Tun
15. Tanda de Guaracheros: Bilongo
16. Annia Linares: Contigo en la Distancia
17. Septeto Nacional de Ignacio Pineiro: Suavecito
18. Orquesta Riverside: Holguinera

 Dynamic Range Meter log CD2--------------------------------------------------------------------------------
Analyzed: Annia Linares / The Real... Cuba (CD2) (1)
Bola de Nieve / The Real... Cuba (CD2) (2)
Carlos Embale / The Real... Cuba (CD2) (3)
Duo Los Compadres / The Real... Cuba (CD2) (4)
Eliades Ochoa Y El Cuarteto Patria / The Real... Cuba (CD2) (5)
Irakere / The Real... Cuba (CD2) (6)
Joseito Fernandez / The Real... Cuba (CD2) (7)
Los Modernistas / The Real... Cuba (CD2) (8)
Omara Portuondo / The Real... Cuba (CD2) (9)
Orquesta America / The Real... Cuba (CD2) (10)
Orquesta Enrique Jorrin / The Real... Cuba (CD2) (11)
Orquesta Riverside / The Real... Cuba (CD2) (12)
Pacho Alonso con la Orquesta Egrem / The Real... Cuba (CD2) (13)
Paulina Alvarez / The Real... Cuba (CD2) (14)
Perez Prado / The Real... Cuba (CD2) (15)
Rita Gil / The Real... Cuba (CD2) (16)
Septeto Nacional de Ignacio Pineiro / The Real... Cuba (CD2) (17)
Tanda de Guaracheros / The Real... Cuba (CD2) (18)
--------------------------------------------------------------------------------

DR Peak RMS Duration Track
--------------------------------------------------------------------------------
DR8 -1.04 dB -10.89 dB 3:04 16-Contigo en la Distancia
DR11 -0.50 dB -14.15 dB 2:48 13-Drume Negrita
DR9 -0.09 dB -11.07 dB 4:42 14-El Diablo Tun Tun
DR8 -0.50 dB -9.89 dB 3:21 12-Sarandonga
DR10 -0.10 dB -12.14 dB 4:21 03-Maria Cristina
DR9 -0.09 dB -10.82 dB 5:17 06-Dile a Catalina
DR8 -0.09 dB -9.38 dB 2:58 01-Guajira Guantanamera
DR9 -0.09 dB -11.34 dB 2:33 07-Siboney
DR8 -0.09 dB -11.02 dB 3:18 04-Nosotros
DR8 -0.09 dB -9.09 dB 2:57 09-Me Lo Dijo Adela
DR8 -0.09 dB -9.71 dB 4:03 05-La Guarapachanga
DR8 0.00 dB -9.80 dB 2:54 18-Holguinera
DR7 -0.01 dB -9.00 dB 5:19 02-El Manisero
DR8 -0.09 dB -9.12 dB 3:22 10-Echale Salsita
DR8 -0.09 dB -9.48 dB 2:47 08-Mambo No. 5
DR9 -0.12 dB -11.77 dB 3:15 11-Tu Me Acostumbraste
DR7 -2.50 dB -9.94 dB 3:50 17-Suavecito
DR8 -1.00 dB -10.13 dB 3:35 15-Bilongo
--------------------------------------------------------------------------------

Number of tracks: 18
Official DR value: DR8

Samplerate: 44100 Hz
Channels: 2
Bits per sample: 16
Bitrate: 905 kbps
Codec: FLAC

Disc 3

01. Irakere: Iya
02. Conjunto Rumbavana: La Mujer de Antonio
03. Bebo Valdes: Special del Bebo
04. Emiliano Salvador y Pablo Milanes: Son de la Loma
05. Chucho Valdes y Su Combo: Mi Descarga Pa' Gozar
06. Orquesta Aragon: Mi Son Es un Vacilon
07. Chico O'Farrill y All Stars Cubano: Descarga No.2
08. Machito & His Afro-Cuban Orchestra: Mambo Mucho Mambo
09. Ruben Gonzalez: Date una Vueltecita
10. Orquesta Cubana de Musica Moderna: El Niche (Aja Bibi)
11. Peruchin: La Mulata Rumbera
12. Orquesta Enrique Jorrin: Rico Vacilon
13. Felo Bergaza: Evaconile
14. Frank Emilio Flynn: Indefinidamente
15. Orquesta America: La Enganadora
16. Grupo Cubano de Musica Moderna: Gandinga, Mondongo y Sandunga
17. Grupo de Experimentacion Sonora del ICAIC: Contradanza
18. Arturo Sandoval y Su Grupo: Para Empezar a Vivir

 Dynamic Range Meter log CD3--------------------------------------------------------------------------------
Analyzed: Arturo Sandoval y Su Grupo / The Real... Cuba (CD3) (1)
Bebo Valdes / The Real... Cuba (CD3) (2)
Chico O'Farrill y All Stars Cubano / The Real... Cuba (CD3) (3)
Chucho Valdes y Su Combo / The Real... Cuba (CD3) (4)
Conjunto Rumbavana / The Real... Cuba (CD3) (5)
Emiliano Salvador y Pablo Milanes / The Real... Cuba (CD3) (6)
Felo Bergaza / The Real... Cuba (CD3) (7)
Frank Emilio Flynn / The Real... Cuba (CD3) (8)
Grupo Cubano de Musica Moderna / The Real... Cuba (CD3) (9)
Grupo de Experimentacion Sonora del ICAIC / The Real... Cuba (CD3) (10)
Irakere / The Real... Cuba (CD3) (11)
Machito & His Afro-Cuban Orchestra / The Real... Cuba (CD3) (12)
Orquesta America / The Real... Cuba (CD3) (13)
Orquesta Aragon / The Real... Cuba (CD3) (14)
Orquesta Cubana de Musica Moderna / The Real... Cuba (CD3) (15)
Orquesta Enrique Jorrin / The Real... Cuba (CD3) (16)
Peruchin / The Real... Cuba (CD3) (17)
Ruben Gonzalez / The Real... Cuba (CD3) (18)
--------------------------------------------------------------------------------

DR Peak RMS Duration Track
--------------------------------------------------------------------------------
DR10 -0.25 dB -12.68 dB 6:48 18-Para Empezar a Vivir
DR8 -0.77 dB -10.11 dB 2:47 03-Special del Bebo
DR8 -0.18 dB -10.08 dB 2:49 07-Descarga No.2
DR8 -0.10 dB -10.46 dB 3:28 05-Mi Descarga Pa' Gozar
DR10 -0.15 dB -10.97 dB 3:15 02-La Mujer de Antonio
DR6 -1.90 dB -9.79 dB 5:30 04-Son de la Loma
DR8 -0.10 dB -11.02 dB 2:54 13-Evaconile
DR5 -2.01 dB -9.87 dB 3:56 14-Indefinidamente
DR9 -0.09 dB -10.31 dB 2:35 16-Gandinga, Mondongo y Sandunga
DR8 -1.50 dB -12.05 dB 5:03 17-Contradanza
DR10 -0.15 dB -10.95 dB 5:36 01-Iya
DR9 0.00 dB -9.40 dB 3:02 08-Mambo Mucho Mambo
DR8 -0.50 dB -10.13 dB 3:11 15-La Enganadora
DR7 -0.15 dB -9.21 dB 3:36 06-Mi Son Es un Vacilon
DR8 0.00 dB -9.39 dB 3:59 10-El Niche (Aja Bibi)
DR8 -0.09 dB -9.52 dB 2:46 12-Rico Vacilon
DR8 -1.44 dB -10.49 dB 2:57 11-La Mulata Rumbera
DR9 -0.30 dB -11.60 dB 4:12 09-Date una Vueltecita
--------------------------------------------------------------------------------

Number of tracks: 18
Official DR value: DR8

Samplerate: 44100 Hz
Channels: 2
Bits per sample: 16
Bitrate: 558 kbps
Codec: FLAC
 
Disc 1 | Disc 2 |Disc 3


Artwork


Discs 1-3

password: BlondStyle

DOWNLOAD
uploadgig


nitroflare


rapidgator


turbobit
Direct Download

VA - The Real... Cuba (The Ultimate Collection) [3CD] (2017) rapidshare mediafire megaupload hotfile download, VA - The Real... Cuba (The Ultimate Collection) [3CD] (2017) torrent emule download, VA - The Real... Cuba (The Ultimate Collection) [3CD] (2017) full free download, VA - The Real... Cuba (The Ultimate Collection) [3CD] (2017) rar zip password or anything related.
Back
Dear visitor, you went to the site as unregistered user.
We recommend you to Register or enter the site under your name.


Add your comment

Name:*
E-Mail:*
Security code:*