Home » Movie » Mercenaries (2014) 720p HDRip x264 [HINDI DUBBED ORG DD2.0] 900MB [DiCT]
Category: Movie
Download Now



Mercenaries (2014) 720p HDRip x264 [HINDI DUBBED ORG DD2.0] 900MB [DiCT]

Mercenaries (2014) 720p HDRip x264 [HINDI DUBBED ORG DD2.0] 900MB [DiCT]

IMDB:-
http://www.imdb.com/title/tt3598222/


Plot:-

The President's daughter is captured and imprisoned while touring a war zone, so a team of elite female commandos is assembled to infiltrate a women's prison for a daring rescue.
Director: Christopher Ray (as Christopher Douglas Olen Ray)
Writer: Edward DeRuiter (screenplay)
Stars: Zoë Bell, Kristanna Loken, Vivica A. Fox


Format : Matroska
Format version : Version 4 / Version 2
File size : 920 MiB
Duration : 1 h 30 min
Overall bit rate : 1 430 kb/s

Video
ID : 1
Format : AVC
Format/Info : Advanced Video Codec
Format profile : [email protected]
Format settings, CABAC : Yes
Format settings, ReFrames : 3 frames
Codec ID : V_MPEG4/ISO/AVC
Duration : 1 h 30 min
Bit rate : 1 302 kb/s
Width : 1 280 pixels
Height : 720 pixels
Display aspect ratio : 16:9
Frame rate mode : Constant
Frame rate : 24.000 FPS
Color space : YUV
Chroma subsampling : 4:2:0
Bit depth : 8 bits
Scan type : Progressive
Bits/(Pixel*Frame) : 0.059
Stream size : 838 MiB (91%)

Audio
ID : 2
Format : AAC
Format/Info : Advanced Audio Codec
Format profile : LC
Codec ID : A_AAC
Duration : 1 h 30 min
Bit rate : 126 kb/s
Channel(s) : 2 channels
Channel positions : Front: L R
Sampling rate : 44.1 kHz
Frame rate : 43.066 FPS (1024 spf)
Compression mode : Lossy
Stream size : 80.9 MiB (9%)
Title : DiCT
Language : Hindi
Default : Yes
Forced : No


Screenshots:-

Mercenaries (2014) 720p HDRip x264 [HINDI DUBBED ORG DD2.0] 900MB [DiCT] Mercenaries (2014) 720p HDRip x264 [HINDI DUBBED ORG DD2.0] 900MB [DiCT] Mercenaries (2014) 720p HDRip x264 [HINDI DUBBED ORG DD2.0] 900MB [DiCT] Mercenaries (2014) 720p HDRip x264 [HINDI DUBBED ORG DD2.0] 900MB [DiCT] Mercenaries (2014) 720p HDRip x264 [HINDI DUBBED ORG DD2.0] 900MB [DiCT]


DIRECT DOWNLOAD FAST:-

https://clicknupload.org/tw2op101zxaq
(OR)
http://rapidgator.net/file/8f314a8987eb43f7dd980368f4fa931b/Mercenaries_(2014).mkv.html


WATCH ONLINE/ DOWNLOAD:-

https://thevideo.me/g8oisjcfjy3t


If you like my post, don't forget to say Thanks.

Direct Download

Mercenaries (2014) 720p HDRip x264 [HINDI DUBBED ORG DD2.0] 900MB [DiCT] rapidshare mediafire megaupload hotfile download, Mercenaries (2014) 720p HDRip x264 [HINDI DUBBED ORG DD2.0] 900MB [DiCT] torrent emule download, Mercenaries (2014) 720p HDRip x264 [HINDI DUBBED ORG DD2.0] 900MB [DiCT] full free download, Mercenaries (2014) 720p HDRip x264 [HINDI DUBBED ORG DD2.0] 900MB [DiCT] rar zip password or anything related.
Back
  • Author: madycze
  • Comment: 0
  • Views: 0
Dear visitor, you went to the site as unregistered user.
We recommend you to Register or enter the site under your name.


Add your comment

Name:*
E-Mail:*
Security code:*