Home » Movie » Rise of the Zombies 2012 HDRip XVID AC3 HQ Hive-CM8
Category: Movie
Download Now

Rise of the Zombies 2012 HDRip XVID AC3 HQ Hive-CM8
Rise of the Zombies 2012 HDRip XVID AC3 HQ Hive-CM8 | 1.39 GB


General
Complete name : Rise.of.the.Zombies.2012.HDRip.XVID.AC3.HQ.Hive-CM8.avi
Format : AVI
Format/Info : Audio Video Interleave
File size : 1.38 GiB
Duration : 1h 34mn
Overall bit rate : 2 092 Kbps
Writing application : Nandub v1.0rc2
Writing library : Nandub build 1853/release

Video
ID : 0
Format : MPEG-4 Visual
Format profile : Advanced [email protected]
Format settings, BVOP : 2
Format settings, QPel : Yes
Format settings, GMC : No warppoints
Format settings, Matrix : Default (H.263)
Muxing mode : Packed bitstream
Codec ID : XVID
Codec ID/Hint : XviD
Duration : 1h 34mn
Bit rate : 1 699 Kbps
Width : 720 pixels
Height : 400 pixels
Display aspect ratio : 16:9
Frame rate : 23.976 fps
Color space : YUV
Chroma subsampling : 4:2:0
Bit depth : 8 bits
Scan type : Progressive
Compression mode : Lossy
Bits/(Pixel*Frame) : 0.246
Stream size : 1.12 GiB (81%)
Writing library : XviD 1.2.1 (UTC 2008-12-04)

Audio
ID : 1
Format : AC-3
Format/Info : Audio Coding 3
Mode extension : CM (complete main)
Format settings, Endianness : Big
Codec ID : 2000
Duration : 1h 34mn
Bit rate mode : Constant
Bit rate : 384 Kbps
Channel(s) : 6 channels
Channel positions : Front: L C R, Side: L R, LFE
Sampling rate : 48.0 KHz
Bit depth : 16 bits
Compression mode : Lossy
Stream size : 259 MiB (18%)
Alignment : Split accross interleaves
Interleave, duration : 42 ms (1.00 video frame)
Interleave, preload duration : 500 ms

Plot:
A group of survivors is holed up at Alcatraz Prison in the wake of an undead pandemic.
Their life is peaceful for only so long, however. Soon, the zombies are at their cell
doors and they have to evacuate to the mainland or die.

Cast:
Mariel Hemingway ... Dr. Lynn Snyder
Chad Lindberg ... Kyle
LeVar Burton ... Dr. Dan Halpern


Direct Download

Tags: Zombies
Rise of the Zombies 2012 HDRip XVID AC3 HQ Hive-CM8 rapidshare mediafire megaupload hotfile download, Rise of the Zombies 2012 HDRip XVID AC3 HQ Hive-CM8 torrent emule download, Rise of the Zombies 2012 HDRip XVID AC3 HQ Hive-CM8 full free download, Rise of the Zombies 2012 HDRip XVID AC3 HQ Hive-CM8 rar zip password or anything related.
Back
Dear visitor, you went to the site as unregistered user.
We recommend you to Register or enter the site under your name.


Add your comment

Name:*
E-Mail:*
Security code:*