Home » Movie » The Xpose (2014) - 1CD - DVDRip - Hindi - x264 - MP3 - TeamTNT ExClusive
Category: Movie
Download Now

The Xpose (2014) - 1CD - DVDRip - Hindi - x264 - MP3 - TeamTNT ExClusive






General
Unique ID : 212823253880482408619560326345130935290 (0xA01C448B54F1F67E996E9546079E83FA)
Complete name : The Xpose (2014) - 1CD - DVDRip - Hindi - x264 - MP3 - Mafiaking - TeamTNT ExClusive.mkv
Format : Matroska
Format version : Version 4 / Version 2
File size : 699 MiB
Duration : 1h 53mn
Overall bit rate : 864 Kbps
Movie name : The Xpose (2014) - 1CD - DVDRip - Hindi - x264 - MP3 - Mafiaking - TeamTNT ExClusive
Encoded date : UTC 2014-08-09 10:04:20
Writing application : mkvmerge v7.0.0 ('Where We Going') 32bit built on Jun 9 2014 15:08:34
Writing library : libebml v1.3.0 + libmatroska v1.4.1


Video
ID : 1
Format : AVC
Format/Info : Advanced Video Codec
Format profile : [email protected]
Format settings, CABAC : Yes
Format settings, ReFrames : 4 frames
Codec ID : V_MPEG4/ISO/AVC
Duration : 1h 53mn
Bit rate : 750 Kbps
Width : 640 pixels
Height : 272 pixels
Display aspect ratio : 2.35:1
Frame rate mode : Constant
Frame rate : 29.970 fps
Color space : YUV
Chroma subsampling : 4:2:0
Bit depth : 8 bits
Scan type : Progressive
Bits/(Pixel*Frame) : 0.144
Stream size : 595 MiB (85%)
Title : [email protected]
Language : Hindi
Default : Yes
Forced : No


Audio
ID : 2
Format : MPEG Audio
Format version : Version 1
Format profile : Layer 3
Mode : Joint stereo
Mode extension : MS Stereo
Codec ID : A_MPEG/L3
Codec ID/Hint : MP3
Duration : 1h 53mn
Bit rate mode : Constant
Bit rate : 112 Kbps
Channel(s) : 2 channels
Sampling rate : 44.1 KHz
Compression mode : Lossy
Stream size : 90.6 MiB (13%)
Title : [email protected]
Writing library : LAME3.99r
Language : Hindi
Default : Yes
Forced : No



The Xpose (2014) - 1CD - DVDRip - Hindi - x264 - MP3 - TeamTNT ExClusive

The Xpose (2014) - 1CD - DVDRip - Hindi - x264 - MP3 - TeamTNT ExClusive

The Xpose (2014) - 1CD - DVDRip - Hindi - x264 - MP3 - TeamTNT ExClusive

The Xpose (2014) - 1CD - DVDRip - Hindi - x264 - MP3 - TeamTNT ExClusive

The Xpose (2014) - 1CD - DVDRip - Hindi - x264 - MP3 - TeamTNT ExClusive

The Xpose (2014) - 1CD - DVDRip - Hindi - x264 - MP3 - TeamTNT ExClusive

The Xpose (2014) - 1CD - DVDRip - Hindi - x264 - MP3 - TeamTNT ExClusive

The Xpose (2014) - 1CD - DVDRip - Hindi - x264 - MP3 - TeamTNT ExClusive

The Xpose (2014) - 1CD - DVDRip - Hindi - x264 - MP3 - TeamTNT ExClusive

The Xpose (2014) - 1CD - DVDRip - Hindi - x264 - MP3 - TeamTNT ExClusive

The Xpose (2014) - 1CD - DVDRip - Hindi - x264 - MP3 - TeamTNT ExClusive

The Xpose (2014) - 1CD - DVDRip - Hindi - x264 - MP3 - TeamTNT ExClusive

The Xpose (2014) - 1CD - DVDRip - Hindi - x264 - MP3 - TeamTNT ExClusive

The Xpose (2014) - 1CD - DVDRip - Hindi - x264 - MP3 - TeamTNT ExClusive

The Xpose (2014) - 1CD - DVDRip - Hindi - x264 - MP3 - TeamTNT ExClusive



SINGLE DIRECT FAST LINKS


http://terafile.co/8918510ec270/The.Xpose.2014.1CD.DVDRip.Hindi.x264.MP3.Mafiaking-TeamTNT.ExClusive.mkv



http://rapidgator.net/file/cd83a998304f3e3473f05cfd84bb4825/The.Xpose.2014.1CD.DVDRip.Hindi.x264.MP3.Mafiaking-TeamTNT.ExClusive.mkv.html



http://uploaded.net/file/mhfxa4co/The.Xpose.2014.1CD.DVDRip.Hindi.x264.MP3.Mafiaking-TeamTNT.ExClusive.mkv

Direct Download

The Xpose (2014) - 1CD - DVDRip - Hindi - x264 - MP3 - TeamTNT ExClusive rapidshare mediafire megaupload hotfile download, The Xpose (2014) - 1CD - DVDRip - Hindi - x264 - MP3 - TeamTNT ExClusive torrent emule download, The Xpose (2014) - 1CD - DVDRip - Hindi - x264 - MP3 - TeamTNT ExClusive full free download, The Xpose (2014) - 1CD - DVDRip - Hindi - x264 - MP3 - TeamTNT ExClusive rar zip password or anything related.
Back
  • Author: wroser
  • Comment: 0
  • Views: 0
Dear visitor, you went to the site as unregistered user.
We recommend you to Register or enter the site under your name.


Add your comment

Name:*
E-Mail:*
Security code:*