Home » Movie » The Hooligan Factory (2014) 1080p WEB-DL DD5.1 H264-RBG
Category: Movie
Download Now

The Hooligan Factory (2014) 1080p WEB-DL DD5.1 H264-RBG






mediainfo]
Video
ID                                       : 1
Format                                   : AVC
Format/Info                              : Advanced Video Codec
Format profile                           : [email protected]
Format settings, CABAC                   : Yes
Format settings, ReFrames                : 5 frames
Codec ID                                 : V_MPEG4/ISO/AVC
Duration                                 : 1h 29mn
Bit rate                                 : 3 644 Kbps
Width                                    : 1 912 pixels
Height                                   : 810 pixels
Display aspect ratio                     : 2.35:1
Frame rate mode                          : Constant
Frame rate                               : 23.976 fps
Color space                              : YUV
Chroma subsampling                       : 4:2:0
Bit depth                                : 8 bits
Scan type                                : Progressive
Bits/(Pixel*Frame)                       : 0.098
Stream size                              : 2.29 GiB (89%)
Title                                    : The.Hooligan.Factory.2014.1080p.WEB-DL.DD5.1.H264-RARBG
Language                                 : English
Default                                  : Yes
Forced                                   : No
Color primaries                          : BT.709
Transfer characteristics                 : BT.709
Matrix coefficients                      : BT.709

Audio
ID                                       : 2
Format                                   : AC-3
Format/Info                              : Audio Coding 3
Mode extension                           : CM (complete main)
Format settings, Endianness              : Big
Codec ID                                 : A_AC3
Duration                                 : 1h 29mn
Bit rate mode                            : Constant
Bit rate                                 : 384 Kbps
Channel(s)                               : 6 channels
Channel positions                        : Front: L C R, Side: L R, LFE
Sampling rate                            : 48.0 KHz
Bit depth                                : 16 bits
Compression mode                         : Lossy
Stream size                              : 247 MiB (9%)
Title                                    : The.Hooligan.Factory.2014.1080p.WEB-DL.DD5.1.H264-RARBG
Language                                 : English
Default                                  : Yes
Forced                                   : No

Menu
00:00:00.000                             : en:Chapter 1
00:06:05.000                             : en:Chapter 2
00:07:51.000                             : en:Chapter 3
00:12:26.000                             : en:Chapter 4
00:15:07.000                             : en:Chapter 5
00:19:02.000                             : en:Chapter 6
00:23:21.000                             : en:Chapter 7
00:35:09.000                             : en:Chapter 8
00:40:24.000                             : en:Chapter 9
00:48:34.000                             : en:Chapter 10
00:53:36.000                             : en:Chapter 11
00:58:07.000                             : en:Chapter 12
01:03:54.000                             : en:Chapter 13
01:10:12.000                             : en:Chapter 14
01:14:46.000                             : en:Chapter 15
01:22:13.000                             : en:Chapter 16
01:26:23.000                             : en:Chapter 17



The Hooligan Factory (2014) 1080p WEB-DL DD5.1 H264-RBGThe Hooligan Factory (2014) 1080p WEB-DL DD5.1 H264-RBGThe Hooligan Factory (2014) 1080p WEB-DL DD5.1 H264-RBGThe Hooligan Factory (2014) 1080p WEB-DL DD5.1 H264-RBG





SINGLE DIRECT FAST LINKS

http://rapidgator.net/file/21bbfd396713366d2d6de0b2891c675c/The.Hooligan.Factory.2014.1080p.WEB-DL.DD5.1.H264-RBG.mkv.html


http://uploaded.net/file/e6v6qxy4/The.Hooligan.Factory.2014.1080p.WEB-DL.DD5.1.H264-RBG.mkv

http://terafile.co/35a3ba985319/The.Hooligan.Factory.2014.1080p.WEB-DL.DD5.1.H264-RBG.mkv


1GB LINKS







http://rapidgator.net/file/724b5d1ef6c702349311314434666184/The.Hooligan.Factory.2014.1080p.WEB-DL.DD5.1.H264-RBG.part1.rar.html
http://rapidgator.net/file/1f19cadf001eb41b46c80a8b0c52b46c/The.Hooligan.Factory.2014.1080p.WEB-DL.DD5.1.H264-RBG.part2.rar.html
http://rapidgator.net/file/a4ea77579fb023c601a77053ecac7a2c/The.Hooligan.Factory.2014.1080p.WEB-DL.DD5.1.H264-RBG.part3.rar.html





http://uploaded.net/file/cnyd250u/The.Hooligan.Factory.2014.1080p.WEB-DL.DD5.1.H264-RBG.part1.rar
http://uploaded.net/file/53k7u7dp/The.Hooligan.Factory.2014.1080p.WEB-DL.DD5.1.H264-RBG.part2.rar
http://uploaded.net/file/hss5rled/The.Hooligan.Factory.2014.1080p.WEB-DL.DD5.1.H264-RBG.part3.rar





http://terafile.co/533018f18072/The.Hooligan.Factory.2014.1080p.WEB-DL.DD5.1.H264-RBG.part1.rar
http://terafile.co/8920405a944c/The.Hooligan.Factory.2014.1080p.WEB-DL.DD5.1.H264-RBG.part2.rar
http://terafile.co/1125269549ba/The.Hooligan.Factory.2014.1080p.WEB-DL.DD5.1.H264-RBG.part3.rar

Direct Download

The Hooligan Factory (2014) 1080p WEB-DL DD5.1 H264-RBG rapidshare mediafire megaupload hotfile download, The Hooligan Factory (2014) 1080p WEB-DL DD5.1 H264-RBG torrent emule download, The Hooligan Factory (2014) 1080p WEB-DL DD5.1 H264-RBG full free download, The Hooligan Factory (2014) 1080p WEB-DL DD5.1 H264-RBG rar zip password or anything related.
Back
  • Author: wroser
  • Comment: 0
  • Views: 0
Dear visitor, you went to the site as unregistered user.
We recommend you to Register or enter the site under your name.


Add your comment

Name:*
E-Mail:*
Security code:*